#TITLE:Anisakis;
#SUBTITLE:Tony;
#ARTIST:Suzaku;
#TITLETRANSLIT:;
#SUBTITLETRANSLIT:;
#ARTISTTRANSLIT:;
#CREDIT:Tony;
#BANNER:Anisakis-bn.png;
#BACKGROUND:Anisakis-bg.jpg;
#LYRICSPATH:;
#CDTITLE:Anisakis.png;
#MUSIC:Anisakis.ogg;
#OFFSET:-0.025;
#SAMPLESTART:99.780;
#SAMPLELENGTH:12.000;
#SELECTABLE:YES;
#DISPLAYBPM:185.000;
#BPMS:0.000=185.020,4.000=92.510,20.000=185.020,24.000=185.020,153.000=166.500,154.000=148.000,154.500=130.000,155.000=111.020,162.438=-4.300,162.625=92.510,170.688=-4.270,170.875=92.510,182.938=-3.590,183.125=92.510,192.000=185.020,195.000=370.039,196.000=185.020,198.250=185.040,199.000=370.039,200.000=185.020,203.000=370.038,204.000=185.020,207.000=370.038,208.000=185.020,224.000=370.039,232.000=370.039,236.000=185.020,376.000=370.039,377.500=180.000,378.000=170.000,378.500=150.000,379.000=130.000,379.500=100.000,380.000=90.000,380.500=80.000,381.000=70.000,381.500=50.000;
#STOPS:20.000=0.060
,20.125=0.040
,20.250=0.040
,20.375=0.040
,20.500=0.040
,20.625=0.040
,20.750=0.040
,20.875=0.040
,21.000=0.040
,21.125=0.040
,21.250=0.040
,21.375=0.040
,21.500=0.040
,21.625=0.040
,21.750=0.040
,21.875=0.040
,22.000=0.040
,22.125=0.040
,22.250=0.040
,22.375=0.040
,22.500=0.040
,22.625=0.040
,22.750=0.040
,22.875=0.040
,23.000=0.040
,23.125=0.040
,23.250=0.040
,23.375=0.040
,23.500=0.040
,23.625=0.040
,23.750=0.040
,23.875=0.040
,195.000=0.020
,195.125=0.020
,195.250=0.020
,195.375=0.020
,195.500=0.020
,195.625=0.020
,195.750=0.020
,195.875=0.020
,199.000=0.020
,199.125=0.020
,199.250=0.020
,199.375=0.020
,199.500=0.020
,199.625=0.020
,199.750=0.020
,199.875=0.020
,203.000=0.020
,203.125=0.020
,203.250=0.020
,203.375=0.020
,203.500=0.020
,203.625=0.020
,203.750=0.020
,203.875=0.020
,207.000=0.020
,207.125=0.020
,207.250=0.020
,207.375=0.020
,207.500=0.020
,207.625=0.020
,207.750=0.020
,207.875=0.020
,224.000=0.060
,224.250=0.040
,224.500=0.040
,224.750=0.040
,225.000=0.040
,225.250=0.040
,225.500=0.040
,225.750=0.040
,226.000=0.040
,226.250=0.040
,226.500=0.040
,226.750=0.040
,227.000=0.040
,227.250=0.040
,227.500=0.040
,227.750=0.040
,228.000=0.040
,228.250=0.040
,228.500=0.040
,228.750=0.040
,229.000=0.040
,229.250=0.040
,229.500=0.040
,229.750=0.040
,230.000=0.040
,230.250=0.040
,230.500=0.040
,230.750=0.040
,231.000=0.040
,231.250=0.040
,231.500=0.040
,231.750=0.040
,232.000=0.160
,233.000=0.160
,234.000=0.160
,235.000=0.160
,376.000=0.160
;
#BGCHANGES:4.000=white.png=1.000=0=0=1,
4.063=Anisakis-bg2.jpg=1.000=1=0=1,
20.000=Anisakis-bg3.jpg=1.000=0=0=1,
20.125=Anisakis-bg.jpg=1.000=0=0=1,
20.250=Anisakis-bg3.jpg=1.000=0=0=1,
20.375=Anisakis-bg.jpg=1.000=0=0=1,
20.500=Anisakis-bg3.jpg=1.000=0=0=1,
20.625=Anisakis-bg.jpg=1.000=0=0=1,
20.750=Anisakis-bg3.jpg=1.000=0=0=1,
20.875=Anisakis-bg.jpg=1.000=0=0=1,
21.000=Anisakis-bg3.jpg=1.000=0=0=1,
21.125=Anisakis-bg.jpg=1.000=0=0=1,
21.250=Anisakis-bg3.jpg=1.000=0=0=1,
21.375=Anisakis-bg.jpg=1.000=0=0=1,
21.500=Anisakis-bg3.jpg=1.000=0=0=1,
21.625=Anisakis-bg.jpg=1.000=0=0=1,
21.750=Anisakis-bg3.jpg=1.000=0=0=1,
21.875=Anisakis-bg.jpg=1.000=0=0=1,
22.000=Anisakis-bg3.jpg=1.000=0=0=1,
22.125=Anisakis-bg.jpg=1.000=0=0=1,
22.250=Anisakis-bg3.jpg=1.000=0=0=1,
22.375=Anisakis-bg.jpg=1.000=0=0=1,
22.500=Anisakis-bg3.jpg=1.000=0=0=1,
22.625=Anisakis-bg.jpg=1.000=0=0=1,
22.750=Anisakis-bg3.jpg=1.000=0=0=1,
22.875=Anisakis-bg.jpg=1.000=0=0=1,
23.000=Anisakis-bg3.jpg=1.000=0=0=1,
23.125=Anisakis-bg.jpg=1.000=0=0=1,
23.250=Anisakis-bg3.jpg=1.000=0=0=1,
23.375=Anisakis-bg.jpg=1.000=0=0=1,
23.500=Anisakis-bg3.jpg=1.000=0=0=1,
23.625=Anisakis-bg.jpg=1.000=0=0=1,
23.750=Anisakis-bg3.jpg=1.000=0=0=1,
23.875=white.png=1.000=0=0=1,
24.000=Anisakis-bg.jpg=1.000=1=0=1,
40.000=white.png=1.000=0=0=1,
40.063=Anisakis-bg.jpg=1.000=1=0=1,
56.000=white.png=1.000=0=0=1,
56.063=Anisakis-bg.jpg=1.000=1=0=1,
72.000=white.png=1.000=0=0=1,
72.063=Anisakis-bg.jpg=1.000=1=0=1,
76.000=white.png=1.000=0=0=1,
76.063=Anisakis-bg.jpg=1.000=1=0=1,
80.000=white.png=1.000=0=0=1,
80.063=Anisakis-bg.jpg=1.000=1=0=1,
82.000=white.png=1.000=0=0=1,
82.063=Anisakis-bg.jpg=1.000=1=0=1,
88.000=BGAnimations=1.000=0=0=1,
96.000=BGAnimations2=1.000=0=0=1,
104.000=BGAnimations=1.000=0=0=1,
112.000=BGAnimations2=1.000=0=0=1,
120.000=BGAnimations=1.000=0=0=1,
128.000=BGAnimations2=1.000=0=0=1,
136.000=BGAnimations=1.000=0=0=1,
140.000=BGAnimations2=1.000=0=0=1,
144.000=BGAnimations=1.000=0=0=1,
146.000=BGAnimations2=1.000=0=0=1,
148.000=BGAnimations=1.000=0=0=1,
148.500=BGAnimations2=1.000=0=0=1,
149.000=BGAnimations=1.000=0=0=1,
149.500=BGAnimations2=1.000=0=0=1,
150.000=BGAnimations=1.000=0=0=1,
150.500=Anisakis-bg3.jpg=1.000=0=0=1,
150.625=Anisakis-bg.jpg=1.000=0=0=1,
150.750=Anisakis-bg3.jpg=1.000=0=0=1,
150.875=Anisakis-bg.jpg=1.000=0=0=1,
151.000=Anisakis-bg3.jpg=1.000=0=0=1,
151.125=white.png=1.000=0=0=1,
151.250=Anisakis-bg2.jpg=1.000=1=0=1,
151.500=Anisakis-bg3.jpg=1.000=0=0=1,
151.625=Anisakis-bg.jpg=1.000=0=0=1,
151.750=Anisakis-bg3.jpg=1.000=0=0=1,
152.000=white.png=1.000=0=0=1,
152.063=BGAnimations3=1.000=1=0=1,
162.500=BGAnimations4=1.000=0=0=1,
170.750=BGAnimations3=1.000=0=0=1,
179.000=BGAnimations4=1.000=0=0=1,
183.000=BGAnimations3=1.000=0=0=1,
191.500=BGAnimations=1.000=0=0=1,
191.583=BGAnimations2=1.000=0=0=1,
191.667=BGAnimations=1.000=0=0=1,
191.750=BGAnimations2=1.000=0=0=1,
191.833=BGAnimations=1.000=0=0=1,
191.917=BGAnimations2=1.000=0=0=1,
192.000=white.png=1.000=0=0=1,
192.063=Anisakis-bg.jpg=1.000=1=0=1,
195.000=Anisakis-bg2.jpg=1.000=0=0=1,
195.188=BGAnimations=1.000=0=0=1,
195.313=BGAnimations2=1.000=0=0=1,
195.500=BGAnimations=1.000=0=0=1,
195.667=BGAnimations2=1.000=0=0=1,
195.833=BGAnimations=1.000=0=0=1,
196.000=white.png=1.000=0=0=1,
196.063=Anisakis-bg2.jpg=1.000=1=0=1,
199.000=BGAnimations=1.000=0=0=1,
199.167=BGAnimations2=1.000=0=0=1,
199.333=BGAnimations=1.000=0=0=1,
199.500=BGAnimations2=1.000=0=0=1,
199.667=BGAnimations=1.000=0=0=1,
199.833=BGAnimations2=1.000=0=0=1,
200.000=white.png=1.000=0=0=1,
200.063=Anisakis-bg3.jpg=1.000=1=0=1,
203.000=BGAnimations2=1.000=0=0=1,
203.167=BGAnimations=1.000=0=0=1,
203.333=BGAnimations2=1.000=0=0=1,
203.500=BGAnimations=1.000=0=0=1,
203.667=BGAnimations2=1.000=0=0=1,
203.833=BGAnimations=1.000=0=0=1,
204.000=white.png=1.000=0=0=1,
204.063=Anisakis-bg2.jpg=1.000=1=0=1,
207.000=BGAnimations=1.000=0=0=1,
207.167=BGAnimations2=1.000=0=0=1,
207.333=BGAnimations=1.000=0=0=1,
207.500=BGAnimations2=1.000=0=0=1,
207.667=BGAnimations=1.000=0=0=1,
207.833=BGAnimations2=1.000=0=0=1,
208.000=white.png=1.000=0=0=1,
208.063=Anisakis-bg2.jpg=1.000=0=0=1,
208.063=Anisakis-bg.jpg=1.000=1=0=1,
212.000=white.png=1.000=0=0=1,
212.063=Anisakis-bg.jpg=1.000=1=0=1,
216.000=white.png=1.000=0=0=0,
216.063=Anisakis-bg5.jpg=1.000=1=0=1,
224.000=Anisakis-bg3.jpg=1.000=0=0=1,
224.125=Anisakis-bg.jpg=1.000=0=0=1,
224.250=Anisakis-bg3.jpg=1.000=0=0=1,
224.375=Anisakis-bg.jpg=1.000=0=0=1,
224.500=Anisakis-bg3.jpg=1.000=0=0=1,
224.625=Anisakis-bg.jpg=1.000=0=0=1,
224.750=Anisakis-bg3.jpg=1.000=0=0=1,
224.875=Anisakis-bg.jpg=1.000=0=0=1,
225.000=Anisakis-bg3.jpg=1.000=0=0=1,
225.125=Anisakis-bg.jpg=1.000=0=0=1,
225.250=Anisakis-bg3.jpg=1.000=0=0=1,
225.375=Anisakis-bg.jpg=1.000=0=0=1,
225.500=Anisakis-bg3.jpg=1.000=0=0=1,
225.625=Anisakis-bg.jpg=1.000=0=0=1,
225.750=Anisakis-bg3.jpg=1.000=0=0=1,
225.875=Anisakis-bg.jpg=1.000=0=0=1,
226.000=Anisakis-bg3.jpg=1.000=0=0=1,
226.125=Anisakis-bg.jpg=1.000=0=0=1,
226.250=Anisakis-bg3.jpg=1.000=0=0=1,
226.375=Anisakis-bg.jpg=1.000=0=0=1,
226.500=Anisakis-bg3.jpg=1.000=0=0=1,
226.625=Anisakis-bg.jpg=1.000=0=0=1,
226.750=Anisakis-bg3.jpg=1.000=0=0=1,
226.875=Anisakis-bg.jpg=1.000=0=0=1,
227.000=Anisakis-bg3.jpg=1.000=0=0=1,
227.125=Anisakis-bg.jpg=1.000=0=0=1,
227.250=Anisakis-bg3.jpg=1.000=0=0=1,
227.375=Anisakis-bg.jpg=1.000=0=0=1,
227.500=Anisakis-bg3.jpg=1.000=0=0=1,
227.625=Anisakis-bg.jpg=1.000=0=0=1,
227.750=Anisakis-bg3.jpg=1.000=0=0=1,
227.875=Anisakis-bg.jpg=1.000=0=0=1,
228.000=Anisakis-bg3.jpg=1.000=0=0=1,
228.125=Anisakis-bg.jpg=1.000=0=0=1,
228.250=Anisakis-bg3.jpg=1.000=0=0=1,
228.375=Anisakis-bg.jpg=1.000=0=0=1,
228.500=Anisakis-bg3.jpg=1.000=0=0=1,
228.625=Anisakis-bg.jpg=1.000=0=0=1,
228.750=Anisakis-bg3.jpg=1.000=0=0=1,
228.875=Anisakis-bg.jpg=1.000=0=0=1,
229.000=Anisakis-bg3.jpg=1.000=0=0=1,
229.125=Anisakis-bg.jpg=1.000=0=0=1,
229.250=Anisakis-bg3.jpg=1.000=0=0=1,
229.375=Anisakis-bg.jpg=1.000=0=0=1,
229.500=Anisakis-bg3.jpg=1.000=0=0=1,
229.625=Anisakis-bg.jpg=1.000=0=0=1,
229.750=Anisakis-bg3.jpg=1.000=0=0=1,
229.875=Anisakis-bg.jpg=1.000=0=0=1,
230.000=Anisakis-bg3.jpg=1.000=0=0=1,
230.125=Anisakis-bg.jpg=1.000=0=0=1,
230.250=Anisakis-bg3.jpg=1.000=0=0=1,
230.375=Anisakis-bg.jpg=1.000=0=0=1,
230.500=Anisakis-bg3.jpg=1.000=0=0=1,
230.625=Anisakis-bg.jpg=1.000=0=0=1,
230.750=Anisakis-bg3.jpg=1.000=0=0=1,
230.875=Anisakis-bg.jpg=1.000=0=0=1,
231.000=Anisakis-bg3.jpg=1.000=0=0=1,
231.125=Anisakis-bg.jpg=1.000=0=0=1,
231.250=Anisakis-bg3.jpg=1.000=0=0=1,
231.375=Anisakis-bg.jpg=1.000=0=0=1,
231.500=Anisakis-bg3.jpg=1.000=0=0=1,
231.625=Anisakis-bg.jpg=1.000=0=0=1,
231.750=Anisakis-bg3.jpg=1.000=0=0=1,
231.875=Anisakis-bg.jpg=1.000=0=0=1,
232.000=Anisakis-bg4.jpg=1.000=0=0=1,
232.063=Anisakis-bg.jpg=1.000=0=0=1,
233.000=Anisakis-bg4.jpg=1.000=0=0=1,
233.063=Anisakis-bg.jpg=1.000=0=0=1,
234.000=Anisakis-bg4.jpg=1.000=0=0=1,
234.063=Anisakis-bg.jpg=1.000=0=0=1,
235.000=Anisakis-bg4.jpg=1.000=0=0=1,
235.063=Anisakis-bg.jpg=1.000=0=0=1,
236.000=BGAnimations=1.000=0=0=1,
236.333=BGAnimations2=1.000=0=0=1,
236.667=BGAnimations4=1.000=0=0=1,
237.000=BGAnimations5=1.000=0=0=1,
237.333=BGAnimations=1.000=0=0=1,
237.667=BGAnimations2=1.000=0=0=1,
238.000=BGAnimations4=1.000=0=0=1,
238.333=BGAnimations5=1.000=0=0=1,
238.667=BGAnimations=1.000=0=0=1,
239.000=BGAnimations3=1.000=0=0=1,
239.333=BGAnimations4=1.000=0=0=1,
239.667=Anisakis-bg6.jpg=1.000=0=0=1,
240.000=BGAnimations=1.000=0=0=1,
244.000=BGAnimations4=1.000=0=0=1,
248.000=white.png=1.000=0=0=1,
248.063=Anisakis-bg2.jpg=1.000=1=0=1,
280.000=white.png=1.000=0=0=1,
280.063=Anisakis-bg2.jpg=1.000=1=0=1,
296.000=BGAnimations=1.000=0=0=1,
300.000=BGAnimations2=1.000=0=0=1,
304.000=BGAnimations4=1.000=0=0=1,
308.000=BGAnimations3=1.000=0=0=1,
312.000=white.png=1.000=0=0=1,
312.063=BGAnimations5=1.000=1=0=1,
320.000=white.png=1.000=0=0=1,
320.063=BGAnimations3=1.000=1=0=1,
324.000=white.png=1.000=0=0=1,
324.063=BGAnimations4=1.000=1=0=1,
326.000=white.png=1.000=0=0=1,
326.063=BGAnimations3=1.000=1=0=1,
327.000=white.png=1.000=0=0=1,
327.063=BGAnimations4=1.000=1=0=1,
328.000=white.png=1.000=0=0=1,
328.063=BGAnimations3=1.000=1=0=1,
331.000=white.png=1.000=0=0=1,
331.063=BGAnimations4=1.000=1=1=1,
332.000=white.png=1.000=0=0=1,
332.063=BGAnimations3=1.000=1=1=1,
335.000=white.png=1.000=0=0=1,
335.063=BGAnimations4=1.000=1=0=1,
336.000=white.png=1.000=0=0=1,
336.063=BGAnimations5=1.000=1=0=1,
340.000=white.png=1.000=0=0=1,
340.063=Anisakis-bg.jpg=1.000=1=0=1,
356.000=Anisakis-bg5.jpg=1.000=1=0=1,
360.000=Anisakis-bg.jpg=1.000=1=0=1,
364.000=Anisakis-bg5.jpg=1.000=1=0=1,
372.000=BGAnimations=1.000=0=0=1,
372.333=BGAnimations5=1.000=0=0=1,
372.667=BGAnimations2=1.000=0=0=1,
373.000=BGAnimations3=1.000=0=0=1,
373.333=BGAnimations5=1.000=0=0=1,
373.667=BGAnimations=1.000=0=0=1,
374.000=BGAnimations3=1.000=0=0=1,
374.333=BGAnimations2=1.000=0=0=1,
374.667=BGAnimations5=1.000=0=0=1,
375.000=BGAnimations=1.000=0=0=1,
375.333=BGAnimations3=1.000=0=0=1,
375.667=BGAnimations2=1.000=0=0=1,
376.000=Anisakis-bg4.jpg=1.000=0=0=1,
377.000=white.png=1.000=0=0=1,
377.063=BGAnimations3=1.000=1=0=1,
99999=-nosongbg-=1.000=0=0=0 // don't automatically add -songbackground-
;
// cache tags:
#FIRSTBEAT:4.000;
#LASTBEAT:385.000;
#SONGFILENAME:Songs/SDO/Anisakis/Anisakis.sm;
#HASMUSIC:1;
#HASBANNER:1;
#MUSICLENGTH:137.155;
// end cache tags

//---------------dance-single - ----------------
#NOTES:
     dance-single:
     :
     Hard:
     25:
     1.000,1.000,1.000,0.583,1.000,983.000,275.000,80.000,160.000,43.000:
0000
0000
0000
0000
,
2000
0000
3002
0000
,
0203
0000
0000
0000
0320
0000
0001
1000
,
0132
1000
0100
0010
2103
0000
0000
0000
,
3121
0000
0000
0000
2130
0001
0100
0001
,
3220
0000
0000
0000
,
1331
0100
1000
0001
0110
0010
0100
0010
,
0101
1000
0001
0010
0101
0000
1010
0000
,
1100
0010
0001
0100
1010
0001
0100
1000
,
0110
0001
0010
0100
1010
0100
1011
1001
,
1101
0010
0011
0100
1010
0001
1010
1000
,
1100
0010
0011
1000
0101
1000
0101
0010
,
0110
0100
1010
0001
0011
0100
1010
1000
,
1101
0111
0000
0000
1101
0000
1011
1000
,
0111
0100
1100
0110
0011
1010
1100
0011
,
0102
0000
1000
0000
1103
0000
0001
0000
1100
0010
0001
0000
0011
0000
1000
0000
,
1010
0101
0011
0110
1100
0101
1100
0011
,
0120
0000
0100
0000
0131
0000
1000
0000
0110
0001
0010
0000
0110
0000
1000
0000
,
2011
0010
3100
0010
1001
1000
0001
0010
,
1021
0000
0100
0000
0131
0000
1000
0000
1100
1000
0001
0000
0011
0000
1000
0000
,
2101
0010
0100
0000
3100
0000
0001
0000
1012
0100
0010
0000
0103
0000
1000
0000
,
1001
0010
0100
0001
1100
0010
0001
0100
1010
0001
0010
0100
1001
0100
0010
0001
,
1010
0100
0010
0001
0010
0000
1001
0010
0101
1000
0100
0000
1001
0100
0010
0001
,
0010
0000
1001
0010
0101
1000
0100
0000
1100
0010
0100
0001
1010
0100
0010
0001
,
1001
0010
0100
1000
0100
0000
1001
0010
0101
1000
0100
0000
1001
0100
0010
0001
,
1100
0001
0010
0001
1010
0100
1000
0100
0010
0001
0010
0001
1100
0010
0100
0010
,
1001
0100
1000
0100
0011
0000
0001
0010
0001
0010
1100
0000
1000
0100
1000
0100
,
0011
0000
1000
0001
1000
0001
0110
0000
1100
1000
0010
0100
1001
0010
0100
0010
,
1001
0100
0010
0001
0010
0000
1001
0010
0101
1000
0100
0000
1001
0100
0010
0001
,
0010
0000
1000
0001
1100
0001
0010
0100
0011
1000
0100
1001
0110
0001
0100
0010
,
1101
1000
0100
0010
0001
0000
1010
1000
0101
0010
0001
0000
1001
1000
0100
0010
,
0201
0000
1001
0001
1310
0100
1000
0000
0011
0001
0010
0100
1010
0001
1010
0100
,
0010
0001
0100
0001
0110
0000
0001
1000
0001
1000
0100
0000
0010
0001
1000
0010
,
1002
0100
0010
0100
1013
0001
0010
1000
0110
1000
0001
0010
0101
1000
0100
0010
,
1102
0010
0100
1000
0103
0000
1001
0010
0101
1000
0100
0000
1001
0100
0010
0100
,
1012
0000
1100
0010
0103
0010
0001
0000
0011
0100
0010
0100
1001
0100
1000
0100
,
2011
0010
0001
0010
3101
0000
1000
0100
2011
0100
0001
0000
3110
0001
1010
0001
,
0110
0000
0000
0000
1100
0000
0000
0000
0110
0000
0000
0000
0011
0000
0000
0000
0110
0000
0000
0000
1000
0000
0001
0001
1101
0000
0000
0000
0100
0010
0001
0000
,
2100
0000
00M0
0000
000M
0000
00M0
0000
0M00
0000
00M0
0000
000M
0000
00M0
0000
0M00
0000
00M0
0000
3M0M
M000
00M0
0M00
,
00M0
0M0M
M000
0000
0M00
0000
00M0
0000
000M
0000
00M0
0000
0M00
0000
M000
0000
0M00
0000
00M0
0000
000M
0000
00M0
0000
,
0M00
0000
0000
0000
M000
0000
0000
0000
0M00
0000
0000
0000
00M0
0000
0000
0000
000M
0000
0000
0000
00M0
0000
0000
0000
0000
0M00
0000
0000
0000
0000
M000
0000
0000
0M0M
0000
0000
M000
0000
0000
000M
0000
0000
00M0
0000
0000
0M00
0000
0000
,
M000
0000
0000
0000
0000
0000
0MM0
0000
0000
0000
0000
0000
M000
0000
0000
00M0
0000
0000
0000
000M
0000
0000
0000
00M0
0000
0000
0000
0000
0M00
0000
0000
0000
0000
1000
0000
0000
010M
0000
0000
1000
0000
0000
0001
0000
0000
0010
0000
0000
,
0M00
1000
0000
0110
0000
M000
000M
00M0
0000
0M00
0000
0M00
M0M0
0M00
000M
M0M0
,
0M00
000M
0000
00MM
0000
0MM0
0000
MM00
00M0
0000
0M00
0000
0100
M010
0100
0001
,
M010
0M00
0001
M000
0011
0000
0110
000M
1100
0000
000M
M000
0M01
0010
0100
0010
,
M001
0000
1000
000M
1100
0000
00M0
0000
0M00
0000
M000
0000
0MM0
M000
00MM
0000
,
MM00
0000
00M0
0000
M00M
0000
0000
0000
M000
0000
0M00
0000
00M0
0000
0M00
0000
M000
0000
00M0
0000
M000
0M00
00M0
000M
0M00
0000
0000
0000
M000
0000
0000
0000
,
0110
0000
M000
0000
0011
0000
0000
0000
1100
0000
00M0
0000
M001
0000
0000
0000
100M
0000
0100
0000
0010
0000
0100
0000
1000
0000
00M0
0000
1000
0100
0010
0001
,
1100
0000
0000
0000
0000
0000
0001
0000
0000
0000
0000
0000
0110
0000
0000
0000
0001
0000
1000
0100
0010
0001
0010
0001
,
1100
0000
0000
0000
0000
0000
0001
0000
0000
0000
0000
0000
0110
0000
0000
0000
0010
0000
1000
0100
0001
0010
1000
0001
,
0110
0000
0000
0000
0000
0000
1000
0000
0000
0000
0000
0000
0110
0000
0000
0000
1000
0000
0001
0010
0100
1000
0100
0010
,
1001
0000
0000
0000
0000
0000
1000
0000
0000
0000
0000
0000
0110
0000
0000
0000
0001
0000
0100
0010
0001
0010
0100
1000
,
0110
0000
1000
0110
0000
0010
0101
0000
0010
1100
0000
1000
,
0011
0000
0110
1100
0000
1010
0011
0000
0011
1100
0000
0110
,
1100
0000
0000
0000
0000
0000
0000
0000
0000
0000
0000
0000
0000
0000
0000
0000
0010
0000
0000
0000
0000
0000
0000
0000
0000
0000
0000
0000
0000
0000
0000
0000
1000
0000
0000
0000
0001
0000
0000
0000
0000
0000
0010
0000
0000
0000
0000
0000
0001
0000
0000
0000
0000
0000
0000
0000
0000
0000
0000
0000
0000
0000
0000
0000
0100
0000
0000
0000
0000
0000
0000
0000
0000
0000
0000
0000
0000
0000
0000
0000
0001
0000
0000
0000
0010
0000
0000
0000
0000
0000
0100
0000
0000
0000
0000
0000
1000
0000
0000
0000
0000
0000
0000
0000
0000
0000
0000
0000
0000
0000
0000
0000
0100
0000
0000
0000
0000
0000
0000
0000
0000
0000
0000
0000
0000
0000
0000
0000
0001
0000
0000
0000
1000
0000
0000
0000
0000
0000
0100
0000
0000
0000
0000
0000
0010
0000
0000
0000
0000
0000
0000
0000
0000
0000
0000
0000
0000
0000
0000
0000
0001
0000
0000
0000
0000
0000
0000
0000
0000
0000
0000
0000
0000
0000
0000
0000
1000
0000
0000
0000
0010
0000
0000
0000
0000
0000
0100
0000
0000
0000
0000
0000
,
1001
0010
0100
1000
0100
0010
0001
0010
0100
1000
0100
0010
,
2002
00M0
30M0
00M0
20M0
00M0
30M0
00M0
20M0
00M0
30M0
00M0
20M0
00M0
30M0
00M0
,
20M0
00M0
30M0
00M0
20M0
00M0
30M0
00M0
20M0
00M0
30M0
00M0
20M0
00M0
30M0
00M0
,
2203
3300
0220
0330
0022
0033
0220
0330
,
1100
0001
0100
1010
0001
1000
0110
1000
0001
1010
1100
0011
,
2002
0000
0000
0000
0000
0000
0000
0000
0000
0000
0000
0000
0000
0000
0000
3003
,
0001
0010
0100
1000
0100
0010
0001
0010
0001
0100
0010
1000
0100
0010
0100
1000
,
0111
1000
0001
0010
0101
1000
0010
0001
0100
0010
1000
0100
0011
0100
0010
1000
,
0101
1000
0001
0010
0101
1000
0100
1000
0011
0100
0010
1000
0110
1000
0001
0100
,
1010
0001
1000
0010
1100
0001
0100
0010
0101
1000
0001
0100
1010
0001
0100
0001
,
1010
0001
0010
1000
0100
0010
0100
0001
1010
0100
0010
0001
1100
0001
0100
0010
,
1100
0001
0100
1000
0100
0001
0100
0010
0101
1000
0001
0100
0010
1000
0010
0001
,
0110
1000
0010
1000
0110
1000
0001
0100
0010
0001
0100
0010
1000
0100
0010
0100
,
1001
0010
0100
0001
1000
0100
0001
0010
1100
0001
0100
0010
1000
0001
0010
0100
,
0011
0000
0110
0000
0011
0100
1000
0010
1000
0100
1000
0001
1000
0010
0100
1000
,
1110
0001
0010
0100
1010
0001
0100
0010
1000
0001
0010
0100
0011
1000
0100
1000
,
0011
0100
0010
1000
0001
0100
0001
0010
1100
0010
1000
0001
0010
0100
0010
0100
,
1011
0100
0010
1000
0010
0001
0100
0010
1001
0100
0010
1000
0011
0100
0010
0001
,
0110
0001
1000
0100
1010
0001
0100
0010
1001
0010
0100
1000
0100
0010
0001
0010
,
1100
0001
1000
0100
1000
0001
1000
0010
1000
0100
1000
0010
1000
0001
1000
0010
,
0100
0001
0100
0010
0100
1000
0100
0010
0100
0001
0100
0010
0100
1000
0100
0010
,
1001
0100
0001
0100
1010
0001
0100
0010
1000
0001
0010
0100
0010
1000
0001
0100
,
1010
0001
0010
0100
1000
0100
0010
0001
0010
0100
1000
0100
1000
0100
0010
0001
,
2110
3000
0200
0300
0020
0030
0002
0003
,
0220
0330
2200
3300
0022
0033
2020
3030
,
0222
0333
0020
0030
0200
0300
0002
0003
,
2100
0000
3000
0000
0012
0003
0120
0030
,
2100
0000
3000
0000
0000
0000
0202
0303
,
2220
0000
3330
0000
0000
0000
2002
3003
,
2202
0000
3313
0100
1000
0100
0010
0001
0010
0100
1000
0100
0010
0001
0010
0100
,
1001
0010
0100
1000
0001
0100
0001
0100
0010
1000
0010
1000
0101
0010
0100
1000
,
0101
0010
1001
0100
1001
0010
0001
1000
0101
0010
1001
0010
1100
0010
0100
1000
,
0101
1000
0101
0010
1001
0010
1001
0010
0101
1000
0101
0010
1001
0100
0010
0001
,
1010
0100
1001
0010
1001
0100
1001
0010
1001
0010
0001
0100
1010
0001
1100
0011
,
1001
0010
1001
0100
1010
0100
1001
0010
1100
0010
0101
1000
0011
0100
1010
1100
,
0011
0000
0000
1000
0000
0000
0100
0000
0010
0000
0001
0000
0110
0000
0000
1000
0000
0000
0101
0000
0000
0010
0000
0000
1001
0000
0000
0010
0000
0000
0100
0000
1000
0000
0001
0000
0110
0000
0000
0001
0000
0000
1010
0000
0100
0000
0010
0000
,
1001
0010
0100
0010
1001
0100
0010
0001
1101
0010
0100
1000
0101
0010
1001
1100
,
0011
0000
0000
1000
0000
0000
0001
0000
1000
0000
0100
0000
0001
0000
0000
0010
0000
0000
0001
0000
0010
0000
0100
0000
1001
0000
0000
0010
0000
0000
1000
0000
0100
0000
0010
0000
1001
0000
0000
0010
0000
0000
0100
0000
1000
0000
0001
0000
,
0110
1000
0001
1000
0001
0010
0100
1000
0001
1000
0001
0200
,
0320
0000
0030
0000
2222
0000
0000
0000
0000
0000
0000
0000
0000
0000
0003
000M
,
0000
0000
0000
000M
0000
0000
0030
0000
0000
00M0
0000
0000
0000
0000
00M0
0300
0000
0000
0M00
0000
0000
0000
000M
0000
0000
0000
0000
0M00
0000
0000
000M
0000
0000
00M0
0000
0000
0M00
0000
0000
000M
0000
0000
0000
0000
0000
00M0
0000
0000
,
3000
0000
000M
0M00
0000
0000
0000
0000
00M0
0000
0000
0000
M000
0000
0000
0000
0000
0000
0000
0000
0000
0000
0000
0000
0000
0000
0000
0000
0000
0000
0000
0000
0000
0000
0000
0000
0000
0000
0000
0000
0000
0000
0000
0000
0000
0000
0000
0000
;
